• 乌鲁木齐一老人西湖边落水 5位小伙出手相救 2019-10-13
  • 比利时建议每周饮酒别超过10杯 2019-10-13
  • 总投资过千亿 武汉61个重大项目集中开工 2019-10-12
  • 江西省节能宣传周活动启动 2019-10-12
  • 好像经济问题翻遍所有的图书馆都找不出答案,原来经济关系就在《论十大关系》数千个言辞中。 2019-10-09
  • 石家庄已安装2万智能井盖 具有防坠防盗静音等功能 2019-10-08
  • 山西:今年汛期降雨量偏多 各部门未雨绸缪全力备汛 2019-10-08
  • 阿呆,那是你家远祖啊,还不跪拜?[哈哈] 2019-10-07
  • 央行将对远期售汇业务收取20%风险准备金 2019-10-07
  • 高清组图遵义会议旧址重温中国革命的"生死转折" 2019-10-05
  • 骆惠宁主持召开十一届省委全面深化改革领导小组第十五次会议 2019-10-02
  • 靳东神预测世界杯:两个星期前预测英格兰21突尼斯 2019-09-28
  • 双拳出击:领主商务版威虎超值版上市 2019-09-28
  • 故事战斗民族评选最美女警 姑娘们颜值开挂 2019-09-28
  • 回家途中遭遇车祸 受伤入院母子获捐8万元善款 2019-09-28
  • 新疆25选7

     找回密码
     立即注册
    打印 上一主题 下一主题

    新疆彩票25选7: 大侦探皮卡丘 Pokemon.Detective.Pikachu.2019.1080p.3D.BluRay.Half-SBS.x2...

    [复制链接]
    ?
    跳转到指定楼层
    楼主
    电影下载 发表于 2019-8-8 10:14:18 | 只看该作者 回帖奖励 |倒序浏览 |阅读模式


    帖子完整标题:大侦探皮卡丘 Pokemon.Detective.Pikachu.2019.1080p.3D.BluRay.Half-SBS.x264.TrueHD.7.1.Atmos-FGT 18.30GB




    ◎译  名 大侦探皮卡丘 / Detective Pikachu / POKéMON 名侦探皮卡丘(台) / Pokemon / 名侦探皮卡丘 / 宠物小精灵 / 宠物小精灵之名侦探皮卡丘 / 宠物小精灵真人版 / 精灵宝可梦 / 精灵宝可梦之名侦探皮卡丘 / 精灵宝可梦:大侦探皮卡丘
    ◎片  名 Pokémon Detective Pikachu
    ◎年  代 2019
    ◎产  地 美国 / 日本
    ◎类  别 喜剧 / 动画 / 奇幻 / 冒险
    ◎语  言 英语 / 日语
    ◎上映日期 2019-05-10(美国/中国大陆)
    ◎IMDb评分  7.0/10 from 22561 users
    ◎片  长 104分钟
    ◎导  演 罗伯·莱特曼 Rob Letterman
    ◎编  剧 尼科尔·帕尔曼 Nicole Perlman / 亚历克斯·赫什 Alex Hirsch / Satoshi Tajiri
    ◎主  演 瑞恩·雷诺兹 Ryan Reynolds
          贾斯蒂斯·史密斯 Justice Smith
          凯瑟琳·纽顿 Kathryn Newton
          克里斯·吉尔 Chris Geere
          比尔·奈伊 Bill Nighy
          渡边谦 Ken Watanabe
          瑞塔·奥拉 Rita Ora
          苏琪·沃特豪斯 Suki Waterhouse
          卡兰·索尼 Karan Soni
          普莉安卡·伯福德 Priyanga Burford
          乔丹·朗 Jordan Long
          贝恩·科拉科 Bern Colla?o
          卡迪夫柯万 Kadiff Kirwan
          奥马尔·查帕罗 Omar Chaparro
          伯纳多·桑托斯 Bernardo Santos
          大谷育江 Ikue Ootani
          露丝·霍洛克斯 Ruth Horrocks
          丹尼尔·厄根 Daniel Eghan
          贾格·帕特尔 Jag Patel
          查利·蕾娅·埃斯奎尔 Charlie Rhea Esquér
          黛博拉·洛克 Deborah Rock
          所罗门·塔伊沃·贾斯提费尔德 Solomon Taiwo Justified
          尼克·欧文福特 Nick Owenford
          凯文·马塔迪恩 Kevin Matadeen
          Diplo


    ◎标  签 动画 | 美国 | 童年 | 2019 | 日本 | 喜剧 | 动漫 | 游戏改编

    ◎简  介  

      好莱坞真人电影《大侦探皮卡丘》(暂译)讲述了蒂姆·古德曼(贾 斯 提·史密斯饰) 为寻找下落不明的父亲来到莱姆市,意外与父亲的前宝可梦搭档大侦探皮卡丘相遇,并惊讶地发现自己是唯一能听懂皮卡丘说话的人类,他们决定组队踏上揭开真相的刺激冒险之路。探案过程中他们邂逅了各式各样 的宝可梦,并意外发现了一个足以毁灭整个宝可梦宇宙的惊天阴谋。该电影改编自任天堂3DS同名游戏,由罗伯·莱特曼导演,瑞安·雷诺兹为大侦探皮卡丘配音,贾斯提斯·史密斯、凯瑟琳·纽顿等主演。

    ◎获奖情况  

      第5届豆瓣电影年度榜单(2018)
      最值得期待的外语电影(提名)



    [quote]Video
    ID                                       : 1
    Format                                   : AVC
    Format/Info                              : Advanced Video Codec
    Format settings                          : CABAC / 3 Ref Frames
    Format settings, CABAC                   : Yes
    Format settings, Reference frames        : 3 frames
    Format settings, GOP                     : M=1, N=23
    Codec ID                                 : V_MPEG4/ISO/AVC
    Duration                                 : 1 h 44 min
    Bit rate                                 : 15.5 Mb/s
    Width                                    : 1 920 pixels
    Height                                   : 1 080 pixels
    Display aspect ratio                     : 16:9
    Frame rate mode                          : Constant
    Frame rate                               : 23.976 (24000/1001) FPS
    Color space                              : YUV
    Chroma subsampling                       : 4:2:0
    Bit depth                                : 8 bits
    Scan type                                : Progressive
    Bits/(Pixel*Frame)                       : 0.312
    Stream size                              : 11.2 GiB (61%)
    Title                                    : Pokemon.Detective.Pikachu.2019.1080p.3D.BluRay.Half-SBS.x264.TrueHD.7.1.Atmos-FGT
    Writing library                          : x264 core 148
    Encoding settings                        : cabac=1 / ref=3 / deblock=1:-1:-1 / analyse=0x3:0 / me=hex / subme=5 / psy=1 / psy_rd=1.00:0.00 / mixed_ref=0 / me_range=16 / chroma_me=1 / trellis=1 / 8x8dct=1 / cqm=0 / deadzone=21,11 / fast_pskip=0 / chroma_qp_offset=0 / threads=24 / lookahead_threads=6 / sliced_threads=0 / nr=0 / decimate=1 / interlaced=0 / bluray_compat=0 / constrained_intra=0 / bframes=2 / b_pyramid=0 / b_adapt=1 / b_bias=0 / direct=1 / weightb=0 / open_gop=0 / weightp=0 / keyint=24 / keyint_min=2 / scenecut=40 / intra_refresh=0 / rc=abr / mbtree=0 / bitrate=15500 / ratetol=1.0 / qcomp=0.60 / qpmin=0 / qpmax=69 / qpstep=4 / ip_ratio=1.40 / pb_ratio=1.30 / aq=1:1.00
    Default                                  : Yes
    Forced                                   : No
    Color range                              : Limited
    Color primaries                          : BT.709
    Transfer characteristics                 : BT.709
    Matrix coefficients                      : BT.709

    Audio #1
    ID                                       : 2
    Format                                   : MLP FBA 16-ch
    Format/Info                              : Meridian Lossless Packing FBA with 16-channel presentation
    Commercial name                          : Dolby TrueHD with Dolby Atmos
    Codec ID                                 : A_TRUEHD
    Duration                                 : 1 h 44 min
    Bit rate mode                            : Variable
    Bit rate                                 : 3 234 kb/s
    Maximum bit rate                         : 6 081 kb/s
    Channel(s)                               : 8 channels
    Channel layout                           : L R C LFE Ls Rs Lb Rb
    Sampling rate                            : 48.0 kHz
    Frame rate                               : 1 200.000 FPS (40 SPF)
    Compression mode                         : Lossless
    Stream size                              : 2.36 GiB (13%)
    Title                                    : Pokemon.Detective.Pikachu.2019.1080p.3D.BluRay.Half-SBS.x264.TrueHD.7.1.Atmos-FGT
    Language                                 : English
    Default                                  : Yes
    Forced                                   : No
    Number of dynamic objects                : 15
    Bed channel count                        : 1 channel
    Bed channel configuration                : LFE

    Audio #2
    ID                                       : 3
    Format                                   : AC-3
    Format/Info                              : Audio Coding 3
    Commercial name                          : Dolby Digital
    Codec ID                                 : A_AC3
    Duration                                 : 1 h 44 min
    Bit rate mode                            : Constant
    Bit rate                                 : 640 kb/s
    Channel(s)                               : 6 channels
    Channel layout                           : L R C LFE Ls Rs
    Sampling rate                            : 48.0 kHz
    Frame rate                               : 31.250 FPS (1536 SPF)
    Bit depth                                : 16 bits
    Compression mode                         : Lossy
    Stream size                              : 478 MiB (3%)
    Title                                    : Pokemon.Detective.Pikachu.2019.1080p.3D.BluRay.Half-SBS.x264.TrueHD.7.1.Atmos-FGT
    Language                                 : English
    Service kind                             : Complete Main
    Default                                  : No
    Forced                                   : No

    Audio #3
    ID                                       : 4
    Format                                   : AC-3
    Format/Info                              : Audio Coding 3
    Commercial name                          : Dolby Digital
    Codec ID                                 : A_AC3
    Duration                                 : 1 h 44 min
    Bit rate mode                            : Constant
    Bit rate                                 : 448 kb/s
    Channel(s)                               : 6 channels
    Channel layout                           : L R C LFE Ls Rs
    Sampling rate                            : 48.0 kHz
    Frame rate                               : 31.250 FPS (1536 SPF)
    Bit depth                                : 16 bits
    Compression mode                         : Lossy
    Stream size                              : 335 MiB (2%)
    Title                                    : Pokemon.Detective.Pikachu.2019.1080p.3D.BluRay.Half-SBS.x264.TrueHD.7.1.Atmos-FGT
    Language                                 : English
    Service kind                             : Complete Main
    Default                                  : No
    Forced                                   : No

    Audio #4
    ID                                       : 5
    Format                                   : AC-3
    Format/Info                              : Audio Coding 3
    Commercial name                          : Dolby Digital
    Codec ID                                 : A_AC3
    Duration                                 : 1 h 44 min
    Bit rate mode                            : Constant
    Bit rate                                 : 448 kb/s
    Channel(s)                               : 6 channels
    Channel layout                           : L R C LFE Ls Rs
    Sampling rate                            : 48.0 kHz
    Frame rate                               : 31.250 FPS (1536 SPF)
    Bit depth                                : 16 bits
    Compression mode                         : Lossy
    Stream size                              : 335 MiB (2%)
    Title                                    : Pokemon.Detective.Pikachu.2019.1080p.3D.BluRay.Half-SBS.x264.TrueHD.7.1.Atmos-FGT
    Language                                 : French
    Service kind                             : Complete Main
    Default                                  : No
    Forced                                   : No

    Audio #5
    ID                                       : 6
    Format                                   : DTS XLL
    Format/Info                              : Digital Theater Systems
    Commercial name                          : DTS-HD Master Audio
    Codec ID                                 : A_DTS
    Duration                                 : 1 h 44 min
    Bit rate mode                            : Variable
    Bit rate                                 : 2 236 kb/s
    Channel(s)                               : 6 channels
    Channel layout                           : C L R Ls Rs LFE
    Sampling rate                            : 48.0 kHz
    Frame rate                               : 93.750 FPS (512 SPF)
    Bit depth                                : 16 bits
    Compression mode                         : Lossless
    Stream size                              : 1.63 GiB (9%)
    Title                                    : Pokemon.Detective.Pikachu.2019.1080p.3D.BluRay.Half-SBS.x264.TrueHD.7.1.Atmos-FGT
    Language                                 : German
    Default                                  : No
    Forced                                   : No

    Audio #6
    ID                                       : 7
    Format                                   : AC-3
    Format/Info                              : Audio Coding 3
    Commercial name                          : Dolby Digital
    Codec ID                                 : A_AC3
    Duration                                 : 1 h 44 min
    Bit rate mode                            : Constant
    Bit rate                                 : 192 kb/s
    Channel(s)                               : 2 channels
    Channel layout                           : L R
    Sampling rate                            : 48.0 kHz
    Frame rate                               : 31.250 FPS (1536 SPF)
    Bit depth                                : 16 bits
    Compression mode                         : Lossy
    Stream size                              : 143 MiB (1%)
    Title                                    : Pokemon.Detective.Pikachu.2019.1080p.3D.BluRay.Half-SBS.x264.TrueHD.7.1.Atmos-FGT
    Language                                 : German
    Service kind                             : Complete Main
    Default                                  : No
    Forced                                   : No

    Audio #7
    ID                                       : 8
    Format                                   : AC-3
    Format/Info                              : Audio Coding 3
    Commercial name                          : Dolby Digital
    Codec ID                                 : A_AC3
    Duration                                 : 1 h 44 min
    Bit rate mode                            : Constant
    Bit rate                                 : 448 kb/s
    Channel(s)                               : 6 channels
    Channel layout                           : L R C LFE Ls Rs
    Sampling rate                            : 48.0 kHz
    Frame rate                               : 31.250 FPS (1536 SPF)
    Bit depth                                : 16 bits
    Compression mode                         : Lossy
    Stream size                              : 335 MiB (2%)
    Title                                    : Pokemon.Detective.Pikachu.2019.1080p.3D.BluRay.Half-SBS.x264.TrueHD.7.1.Atmos-FGT
    Language                                 : Chinese
    Service kind                             : Complete Main
    Default                                  : No
    Forced                                   : No

    Audio #8
    ID                                       : 9
    Format                                   : AC-3
    Format/Info                              : Audio Coding 3
    Commercial name                          : Dolby Digital
    Codec ID                                 : A_AC3
    Duration                                 : 1 h 44 min
    Bit rate mode                            : Constant
    Bit rate                                 : 448 kb/s
    Channel(s)                               : 6 channels
    Channel layout                           : L R C LFE Ls Rs
    Sampling rate                            : 48.0 kHz
    Frame rate                               : 31.250 FPS (1536 SPF)
    Bit depth                                : 16 bits
    Compression mode                         : Lossy
    Stream size                              : 335 MiB (2%)
    Title                                    : Pokemon.Detective.Pikachu.2019.1080p.3D.BluRay.Half-SBS.x264.TrueHD.7.1.Atmos-FGT
    Language                                 : Korean
    Service kind                             : Complete Main
    Default                                  : No
    Forced                                   : No

    Audio #9
    ID                                       : 10
    Format                                   : AC-3
    Format/Info                              : Audio Coding 3
    Commercial name                          : Dolby Digital
    Codec ID                                 : A_AC3
    Duration                                 : 1 h 44 min
    Bit rate mode                            : Constant
    Bit rate                                 : 448 kb/s
    Channel(s)                               : 6 channels
    Channel layout                           : L R C LFE Ls Rs
    Sampling rate                            : 48.0 kHz
    Frame rate                               : 31.250 FPS (1536 SPF)
    Bit depth                                : 16 bits
    Compression mode                         : Lossy
    Stream size                              : 335 MiB (2%)
    Title                                    : Pokemon.Detective.Pikachu.2019.1080p.3D.BluRay.Half-SBS.x264.TrueHD.7.1.Atmos-FGT
    Language                                 : Spanish
    Service kind                             : Complete Main
    Default                                  : No
    Forced                                   : No

    Audio #10
    ID                                       : 11
    Format                                   : AC-3
    Format/Info                              : Audio Coding 3
    Commercial name                          : Dolby Digital
    Codec ID                                 : A_AC3
    Duration                                 : 1 h 44 min
    Bit rate mode                            : Constant
    Bit rate                                 : 448 kb/s
    Channel(s)                               : 6 channels
    Channel layout                           : L R C LFE Ls Rs
    Sampling rate                            : 48.0 kHz
    Frame rate                               : 31.250 FPS (1536 SPF)
    Bit depth                                : 16 bits
    Compression mode                         : Lossy
    Stream size                              : 335 MiB (2%)
    Title                                    : Pokemon.Detective.Pikachu.2019.1080p.3D.BluRay.Half-SBS.x264.TrueHD.7.1.Atmos-FGT
    Language                                 : Russian
    Service kind                             : Complete Main
    Default                                  : No
    Forced                                   : No

    Audio #11
    ID                                       : 12
    Format                                   : AC-3
    Format/Info                              : Audio Coding 3
    Commercial name                          : Dolby Digital
    Codec ID                                 : A_AC3
    Duration                                 : 1 h 44 min
    Bit rate mode                            : Constant
    Bit rate                                 : 448 kb/s
    Channel(s)                               : 6 channels
    Channel layout                           : L R C LFE Ls Rs
    Sampling rate                            : 48.0 kHz
    Frame rate                               : 31.250 FPS (1536 SPF)
    Bit depth                                : 16 bits
    Compression mode                         : Lossy
    Stream size                              : 335 MiB (2%)
    Title                                    : Pokemon.Detective.Pikachu.2019.1080p.3D.BluRay.Half-SBS.x264.TrueHD.7.1.Atmos-FGT
    Language                                 : Thai
    Service kind                             : Complete Main
    Default                                  : No
    Forced                                   : No

    Text #1
    ID                                       : 13
    Format                                   : PGS
    Muxing mode                              : zlib
    Codec ID                                 : S_HDMV/PGS
    Codec ID/Info                            : Picture based subtitle format used on BDs/HD-DVDs
    Duration                                 : 1 h 36 min
    Bit rate                                 : 56.7 kb/s
    Count of elements                        : 3481
    Stream size                              : 39.2 MiB (0%)
    Title                                    : English-PGS
    Language                                 : English
    Default                                  : Yes
    Forced                                   : No

    Text #2
    ID                                       : 14
    Format                                   : PGS
    Muxing mode                              : zlib
    Codec ID                                 : S_HDMV/PGS
    Codec ID/Info                            : Picture based subtitle format used on BDs/HD-DVDs
    Duration                                 : 1 h 42 min
    Bit rate                                 : 39.7 kb/s
    Count of elements                        : 2704
    Stream size                              : 29.1 MiB (0%)
    Title                                    : French-PGS
    Language                                 : French
    Default                                  : No
    Forced                                   : No

    Text #3
    ID                                       : 15
    Format                                   : PGS
    Muxing mode                              : zlib
    Codec ID                                 : S_HDMV/PGS
    Codec ID/Info                            : Picture based subtitle format used on BDs/HD-DVDs
    Duration                                 : 1 h 40 min
    Bit rate                                 : 52.0 kb/s
    Count of elements                        : 3472
    Stream size                              : 37.3 MiB (0%)
    Title                                    : German-PGS
    Language                                 : German
    Default                                  : No
    Forced                                   : No

    Text #4
    ID                                       : 16
    Format                                   : PGS
    Muxing mode                              : zlib
    Codec ID                                 : S_HDMV/PGS
    Codec ID/Info                            : Picture based subtitle format used on BDs/HD-DVDs
    Duration                                 : 1 h 43 min
    Bit rate                                 : 40.1 kb/s
    Count of elements                        : 3016
    Stream size                              : 29.6 MiB (0%)
    Title                                    : Chinese-PGS
    Language                                 : Chinese
    Default                                  : No
    Forced                                   : No

    Text #5
    ID                                       : 17
    Format                                   : PGS
    Muxing mode                              : zlib
    Codec ID                                 : S_HDMV/PGS
    Codec ID/Info                            : Picture based subtitle format used on BDs/HD-DVDs
    Duration                                 : 1 h 43 min
    Bit rate                                 : 40.3 kb/s
    Count of elements                        : 3020
    Stream size                              : 29.8 MiB (0%)
    Title                                    : Chinese-PGS
    Language                                 : Chinese
    Default                                  : No
    Forced                                   : No

    Text #6
    ID                                       : 18
    Format                                   : PGS
    Muxing mode                              : zlib
    Codec ID                                 : S_HDMV/PGS
    Codec ID/Info                            : Picture based subtitle format used on BDs/HD-DVDs
    Duration                                 : 1 h 36 min
    Bit rate                                 : 32.5 kb/s
    Count of elements                        : 2866
    Stream size                              : 22.4 MiB (0%)
    Title                                    : Korean-PGS
    Language                                 : Korean
    Default                                  : No
    Forced                                   : No

    Text #7
    ID                                       : 19
    Format                                   : PGS
    Muxing mode                              : zlib
    Codec ID                                 : S_HDMV/PGS
    Codec ID/Info                            : Picture based subtitle format used on BDs/HD-DVDs
    Duration                                 : 1 h 42 min
    Bit rate                                 : 46.2 kb/s
    Count of elements                        : 2994
    Stream size                              : 33.9 MiB (0%)
    Title                                    : Spanish-PGS
    Language                                 : Spanish
    Default                                  : No
    Forced                                   : No

    Text #8
    ID                                       : 20
    Format                                   : PGS
    Muxing mode                              : zlib
    Codec ID                                 : S_HDMV/PGS
    Codec ID/Info                            : Picture based subtitle format used on BDs/HD-DVDs
    Duration                                 : 1 h 42 min
    Bit rate                                 : 42.3 kb/s
    Count of elements                        : 2835
    Stream size                              : 31.0 MiB (0%)
    Title                                    : Danish-PGS
    Language                                 : Danish
    Default                                  : No
    Forced                                   : No

    Text #9
    ID                                       : 21
    Format                                   : PGS
    Muxing mode                              : zlib
    Codec ID                                 : S_HDMV/PGS
    Codec ID/Info                            : Picture based subtitle format used on BDs/HD-DVDs
    Duration                                 : 1 h 42 min
    Bit rate                                 : 39.9 kb/s
    Count of elements                     &nbsp

    小黑屋|新疆25选7 ( 闽ICP备160050789号-1 )

    所有资源来自网络采集,如果侵犯了您的权益,请发邮件至 [email protected],立即清除相关链接

    GMT+8, 2019-10-16 08:07 , Processed in 0.070145 second(s), 20 queries .

    Powered by Discuz! X3.2

    © 2001-2013 Comsenz Inc.

    快速回复 新疆25选7 返回列表
  • 乌鲁木齐一老人西湖边落水 5位小伙出手相救 2019-10-13
  • 比利时建议每周饮酒别超过10杯 2019-10-13
  • 总投资过千亿 武汉61个重大项目集中开工 2019-10-12
  • 江西省节能宣传周活动启动 2019-10-12
  • 好像经济问题翻遍所有的图书馆都找不出答案,原来经济关系就在《论十大关系》数千个言辞中。 2019-10-09
  • 石家庄已安装2万智能井盖 具有防坠防盗静音等功能 2019-10-08
  • 山西:今年汛期降雨量偏多 各部门未雨绸缪全力备汛 2019-10-08
  • 阿呆,那是你家远祖啊,还不跪拜?[哈哈] 2019-10-07
  • 央行将对远期售汇业务收取20%风险准备金 2019-10-07
  • 高清组图遵义会议旧址重温中国革命的"生死转折" 2019-10-05
  • 骆惠宁主持召开十一届省委全面深化改革领导小组第十五次会议 2019-10-02
  • 靳东神预测世界杯:两个星期前预测英格兰21突尼斯 2019-09-28
  • 双拳出击:领主商务版威虎超值版上市 2019-09-28
  • 故事战斗民族评选最美女警 姑娘们颜值开挂 2019-09-28
  • 回家途中遭遇车祸 受伤入院母子获捐8万元善款 2019-09-28
  • 彩票北京pk拾app下载 打1快的麻将怎么算钱 极速十一选五前二 浙江体彩20选5单期走势图 农场偷菜赚钱 足球竞彩开奖结果查询 任九最新一期奖金查询 网络赚钱软件共享论坛 彩票两面盘大小怎么看 赛马会提供6肖中特 真钱游戏平台下载 万炮捕鱼吧 3d走势图彩宝网8200 体育彩票快速赛车 排球规则和打法图解