• 多国开发“冰上丝路”,北极将成黄金水道? 2019-08-23
  • 更别忘了马克思对共产主义设定的另一个条件:劳动不再是谋生的手段。这一点哈儿是怎么也不能理解的,哈儿嘛,夏虫不可语冰嘛。 2019-08-22
  • 西部消化疾病内镜诊疗新力量杨琦 2019-08-22
  • 《中原经济区包容性增长研究》简介 2019-08-18
  • 外国专家:中国经济很快将超美国 2050年经济中心将移至亚洲 2019-08-18
  • 2018全国高考结束,多省份公布放榜时间 2019-08-12
  • 湖北123家企业携荆楚精品粮油亮相福州 2019-08-12
  • 习近平时间用屈原精神“塑心”“立行” 2019-08-12
  • 广西河池消防支队召开新兵第二阶段集训工作部署会 2019-08-10
  • 40余名孩子上学无法登记 经开未央推诿扯皮!!!市教育局不管不顾!!! 2019-08-10
  • 英国球迷要在世界杯上搞事情?俄罗斯笑脸相迎:你来啊 2019-08-07
  • 微电子与软件工程研究院挂牌成立 2019-08-07
  • 人大代表网络平台-天山网 2019-08-07
  • 张鸿星调研中央环保督察反馈问题整改工作 2019-08-02
  • 红十字日:江西发布红十字会会歌《阳光·天使》 2019-08-01
  • 新疆25选7

     找回密码
     立即注册
    打印 上一主题 下一主题

    25选7计算方法: 捉妖记2 Monster.Hunt.2.2018.720p.BluRay.x264-REGRET 4.37GB

    [复制链接]
    ?
    跳转到指定楼层
    楼主


    帖子完整标题:捉妖记2 Monster.Hunt.2.2018.720p.BluRay.x264-REGRET 4.37GB




    ◎译  名 Monster Hunt 2
    ◎片  名 捉妖记2
    ◎年  代 2018
    ◎产  地 中国大陆 / 香港
    ◎类  别 喜剧 / 奇幻
    ◎语  言 汉语普通话
    ◎上映日期 2018-02-16(中国大陆)
    ◎IMDb评分  5.3/10 from 1007 users
    ◎片  长 110分钟
    ◎导  演 许诚毅 Raman Hui
    ◎编  剧 吴炜伦 Wai Lun Ng / 陈咏燊 Sunny Chan / 苏亮 Liang Su
    ◎主  演 梁朝伟 Tony Leung Chiu Wai
          白百何 Baihe Bai
          井柏然 Boran Jing
          李宇春 Yuchun Li
          杨祐宁 Tony Yang
          大鹏 Da Peng
          吴君如 Sandra Ng
          曾志伟 Eric Tsang
          黄磊 Lei Huang
          柳岩 Yan Liu
          吴莫愁 Mouchou Wu
          伍嘉成 Humphrey Wu
          赵磊 Lay Zhao
          谷嘉诚 Jason
          彭楚粤 Chuyue Peng
          陈泽希 Emn Chen
          郭子凡 G-Ziven
          肖战 Sean Xiao
          焉栩嘉 Xujia Yan
          夏之光 Zhiguang Xia
          姜超 Chao Jiang
          娄艺潇 Yixiao Lou
          张俪 Li Zhang


    ◎标  签 喜剧 | 奇幻 | 搞笑 | 萌 | 中国大陆 | 2018 | 古装 | 冒险

    ◎简  介  

      上一集与胡巴分别后,天荫(井柏然 饰)带着小岚(白百何 饰)踏上寻父之路,在义薄云天的天师堂堂主云大哥(杨祐宁 饰)的帮助下,二人得知天荫父亲宋戴天的护妖轨迹;而重回永宁村的胡巴再度被妖王追杀,颠沛流离逃亡时结识大赌徒屠四谷(梁朝伟 饰)和一只妖怪,三人一起过着相依为命的生活,但又因屠四谷欠下的巨额赌债横生诸多波折。与此同时 ,江湖盛传小妖王胡巴的重金悬赏令,妖界大军、天师精英、绿林草莽闻风而动,多方势力为抢夺胡巴在清水镇掀起腥风血雨。千钧一发之际,念子心切的天荫和小岚通过天师堂找到胡巴并一起逃离险境。岂料,一场更大的惊天阴谋尾随而至,伺机而动……

    ◎获奖情况  

      第55届台北金马影展(2018)
      金马奖 最佳动作设计(提名) 谷垣健治
      金马奖 最佳视觉效果(提名) 潘国瑜

      第38届香港电影金像奖(2019)
      最佳摄影(提名) 潘耀明
      最佳美术指导(提名) 种田阳平 / 吉约姆·阿瑞托斯 / 李健威
      最佳服装造型设计(提名) 奚仲文
      最佳音响效果(提名) 姚俊轩 / 李耀强
      最佳视觉效果(提名) 潘国瑜

      第4届豆瓣电影年度榜单(2017)
      最值得期待的华语电影


    Video
    ID                                       : 1
    Format                                   : AVC
    Format/Info                              : Advanced Video Codec
    Format settings                          : CABAC / 5 Ref Frames
    Format settings, CABAC                   : Yes
    Format settings, ReFrames                : 5 frames
    Codec ID                                 : V_MPEG4/ISO/AVC
    Duration                                 : 1 h 50 min
    Bit rate                                 : 5 033 kb/s
    Width                                    : 1 280 pixels
    Height                                   : 536 pixels
    Display aspect ratio                     : 2.40:1
    Frame rate mode                          : Constant
    Frame rate                               : 23.976 (24000/1001) FPS
    Color space                              : YUV
    Chroma subsampling                       : 4:2:0
    Bit depth                                : 8 bits
    Scan type                                : Progressive
    Bits/(Pixel*Frame)                       : 0.306
    Stream size                              : 3.87 GiB (89%)
    Writing library                          : x264 core 157 r2935 545de2f
    Encoding settings                        : cabac=1 / ref=5 / deblock=1:-3:-3 / analyse=0x3:0x133 / me=umh / subme=9 / psy=1 / psy_rd=1.00:0.00 / mixed_ref=1 / me_range=16 / chroma_me=1 / trellis=2 / 8x8dct=1 / cqm=0 / deadzone=21,11 / fast_pskip=0 / chroma_qp_offset=-2 / threads=17 / lookahead_threads=1 / sliced_threads=0 / nr=0 / decimate=1 / interlaced=0 / bluray_compat=0 / constrained_intra=0 / bframes=3 / b_pyramid=2 / b_adapt=1 / b_bias=0 / direct=3 / weightb=1 / open_gop=0 / weightp=2 / keyint=240 / keyint_min=24 / scenecut=40 / intra_refresh=0 / rc_lookahead=50 / rc=2pass / mbtree=1 / bitrate=5033 / ratetol=1.0 / qcomp=0.60 / qpmin=0 / qpmax=69 / qpstep=4 / cplxblur=20.0 / qblur=0.5 / ip_ratio=1.40 / aq=1:1.00
    Language                                 : English
    Default                                  : Yes
    Forced                                   : No

    Audio
    ID                                       : 2
    Format                                   : AC-3
    Format/Info                              : Audio Coding 3
    Commercial name                          : Dolby Digital
    Codec ID                                 : A_AC3
    Duration                                 : 1 h 50 min
    Bit rate mode                            : Constant
    Bit rate                                 : 640 kb/s
    Channel(s)                               : 6 channels
    Channel layout                           : L R C LFE Ls Rs
    Sampling rate                            : 48.0 kHz
    Frame rate                               : 31.250 FPS (1536 SPF)
    Bit depth                                : 16 bits
    Compression mode                         : Lossy
    Stream size                              : 505 MiB (11%)
    Language                                 : Chinese
    Service kind                             : Complete Main
    Default                                  : Yes
    Forced                                   : No

    Text
    ID                                       : 3
    Format                                   : UTF-8
    Codec ID                                 : S_TEXT/UTF8
    Codec ID/Info                            : UTF-8 Plain Text
    Duration                                 : 1 h 44 min
    Bit rate                                 : 38 b/s
    Count of elements                        : 1369
    Stream size                              : 29.4 KiB (0%)
    Title                                    : English
    Language                                 : English
    Default                                  : Yes
    Forced                                   : Yes

    Menu
    00:00:00.000                             : en:00:00:00.000
    00:05:32.332                             : en:00:05:32.332
    00:16:36.787                             : en:00:16:36.787
    00:25:06.922                             : en:00:25:06.922
    00:36:28.937                             : en:00:36:28.937
    00:46:05.805                             : en:00:46:05.805
    00:55:04.343                             : en:00:55:04.343
    01:04:44.214                             : en:01:04:44.214
    01:14:08.110                             : en:01:14:08.110
    01:22:13.804                             : en:01:22:13.804
    01:31:25.730                             : en:01:31:25.730
    01:41:09.981                             : en:01:41:09.981



                                                                                                                                                                                                            
                                                                                                                                                                                                                                                                                                                                                                                                                                                                                                                                                                                                                                                                                                                                                                                                                                                            
    ddebca5fd9d66bf3ca5fa4d564e301db.torrent (44.2 KB)

    小黑屋|新疆25选7 ( 闽ICP备160050789号-1 )

    所有资源来自网络采集,如果侵犯了您的权益,请发邮件至 [email protected],立即清除相关链接

    GMT+8, 2019-8-25 01:41 , Processed in 0.094907 second(s), 23 queries .

    Powered by Discuz! X3.2

    © 2001-2013 Comsenz Inc.

    快速回复 新疆25选7 返回列表
  • 多国开发“冰上丝路”,北极将成黄金水道? 2019-08-23
  • 更别忘了马克思对共产主义设定的另一个条件:劳动不再是谋生的手段。这一点哈儿是怎么也不能理解的,哈儿嘛,夏虫不可语冰嘛。 2019-08-22
  • 西部消化疾病内镜诊疗新力量杨琦 2019-08-22
  • 《中原经济区包容性增长研究》简介 2019-08-18
  • 外国专家:中国经济很快将超美国 2050年经济中心将移至亚洲 2019-08-18
  • 2018全国高考结束,多省份公布放榜时间 2019-08-12
  • 湖北123家企业携荆楚精品粮油亮相福州 2019-08-12
  • 习近平时间用屈原精神“塑心”“立行” 2019-08-12
  • 广西河池消防支队召开新兵第二阶段集训工作部署会 2019-08-10
  • 40余名孩子上学无法登记 经开未央推诿扯皮!!!市教育局不管不顾!!! 2019-08-10
  • 英国球迷要在世界杯上搞事情?俄罗斯笑脸相迎:你来啊 2019-08-07
  • 微电子与软件工程研究院挂牌成立 2019-08-07
  • 人大代表网络平台-天山网 2019-08-07
  • 张鸿星调研中央环保督察反馈问题整改工作 2019-08-02
  • 红十字日:江西发布红十字会会歌《阳光·天使》 2019-08-01
  • 可以买篮彩的app 上海天天彩选4第2018348期 彩票华东15选5杀号 江苏快3现场开奖 中福彩大奖 免费微信大屏互动软件 体彩七位数开奖结果 百家乐庄闲和赢率 安徽快3自由的百科全书 牛牛电影网 22选5体育彩票走势图 3d单机游戏 京东彩票专家 单双中特大小中特 极速快乐十分是哪里的