• 多国开发“冰上丝路”,北极将成黄金水道? 2019-08-23
  • 更别忘了马克思对共产主义设定的另一个条件:劳动不再是谋生的手段。这一点哈儿是怎么也不能理解的,哈儿嘛,夏虫不可语冰嘛。 2019-08-22
  • 西部消化疾病内镜诊疗新力量杨琦 2019-08-22
  • 《中原经济区包容性增长研究》简介 2019-08-18
  • 外国专家:中国经济很快将超美国 2050年经济中心将移至亚洲 2019-08-18
  • 2018全国高考结束,多省份公布放榜时间 2019-08-12
  • 湖北123家企业携荆楚精品粮油亮相福州 2019-08-12
  • 习近平时间用屈原精神“塑心”“立行” 2019-08-12
  • 广西河池消防支队召开新兵第二阶段集训工作部署会 2019-08-10
  • 40余名孩子上学无法登记 经开未央推诿扯皮!!!市教育局不管不顾!!! 2019-08-10
  • 英国球迷要在世界杯上搞事情?俄罗斯笑脸相迎:你来啊 2019-08-07
  • 微电子与软件工程研究院挂牌成立 2019-08-07
  • 人大代表网络平台-天山网 2019-08-07
  • 张鸿星调研中央环保督察反馈问题整改工作 2019-08-02
  • 红十字日:江西发布红十字会会歌《阳光·天使》 2019-08-01
  • 新疆25选7

     找回密码
     立即注册
    打印 上一主题 下一主题

    新疆风采二十五选七开: 狼之歌 The.Wolfs.Call.2019.720p.BluRay.x264-NODLABS 4.36GB

    [复制链接]
    ?
    跳转到指定楼层
    楼主


    帖子完整标题:狼之歌 The.Wolfs.Call.2019.720p.BluRay.x264-NODLABS 4.36GB




    ◎译  名 狼之歌 / The Song of the Wolf / The Wolf's Call
    ◎片  名 Le chant du loup
    ◎年  代 2019
    ◎产  地 法国
    ◎类  别 战争 / 灾难
    ◎语  言 法语
    ◎上映日期 2019-02-20(法国)
    ◎IMDb评分  7.6/10 from 1275 users
    ◎导  演 Antonin Baudry
    ◎编  剧 Antonin Baudry
    ◎主  演 弗朗索瓦·西维尔 Fran?ois Civil
          奥玛·希 Omar Sy
          马修·卡索维茨 Mathieu Kassovitz
          勒达·卡代布 Reda Kateb
          葆拉·贝尔 Paula Beer


    ◎标  签 法国 | 法国电影 | 战争 | 2019 | 潜艇 | 科幻 | 电影 | FILM

    ◎简  介  

      一个年轻人有一种罕见的礼物,可以识别他听到的每一个声音。在一艘法国核潜艇上,一切都依赖于他,金耳朵。
    看上去绝对可靠,他犯了一个错误,让船员处于死亡的危险之中。他希望重新获得同志的信任,但他的追求会让他们陷入更加戏剧化的境地。
    在核威慑和错误信息的世界中,他们发现自己被困在一个无法控制的装备中。
    Video
    ID                                       : 1
    Format                                   : AVC
    Format/Info                              : Advanced Video Codec
    Format settings                          : CABAC / 5 Ref Frames
    Format settings, CABAC                   : Yes
    Format settings, ReFrames                : 5 frames
    Codec ID                                 : V_MPEG4/ISO/AVC
    Duration                                 : 1 h 55 min
    Bit rate                                 : 4 755 kb/s
    Width                                    : 1 280 pixels
    Height                                   : 536 pixels
    Display aspect ratio                     : 2.40:1
    Frame rate mode                          : Constant
    Frame rate                               : 23.976 (24000/1001) FPS
    Color space                              : YUV
    Chroma subsampling                       : 4:2:0
    Bit depth                                : 8 bits
    Scan type                                : Progressive
    Bits/(Pixel*Frame)                       : 0.289
    Stream size                              : 3.84 GiB (88%)
    Writing library                          : x264 core 157 r2970 5493be8
    Encoding settings                        : cabac=1 / ref=5 / deblock=1:-3:-3 / analyse=0x3:0x113 / me=umh / subme=8 / psy=1 / psy_rd=1.00:0.00 / mixed_ref=1 / me_range=24 / chroma_me=1 / trellis=2 / 8x8dct=1 / cqm=0 / deadzone=21,11 / fast_pskip=1 / chroma_qp_offset=-2 / threads=17 / lookahead_threads=2 / sliced_threads=0 / nr=0 / decimate=1 / interlaced=0 / bluray_compat=0 / constrained_intra=0 / bframes=3 / b_pyramid=2 / b_adapt=2 / b_bias=0 / direct=3 / weightb=1 / open_gop=0 / weightp=2 / keyint=240 / keyint_min=24 / scenecut=40 / intra_refresh=0 / rc_lookahead=50 / rc=2pass / mbtree=1 / bitrate=4755 / ratetol=1.0 / qcomp=0.60 / qpmin=0 / qpmax=69 / qpstep=4 / cplxblur=20.0 / qblur=0.5 / ip_ratio=1.40 / aq=3:0.80
    Default                                  : Yes
    Forced                                   : No

    Audio
    ID                                       : 2
    Format                                   : AC-3
    Format/Info                              : Audio Coding 3
    Commercial name                          : Dolby Digital
    Codec ID                                 : A_AC3
    Duration                                 : 1 h 55 min
    Bit rate mode                            : Constant
    Bit rate                                 : 640 kb/s
    Channel(s)                               : 6 channels
    Channel layout                           : L R C LFE Ls Rs
    Sampling rate                            : 48.0 kHz
    Frame rate                               : 31.250 FPS (1536 SPF)
    Bit depth                                : 16 bits
    Compression mode                         : Lossy
    Stream size                              : 530 MiB (12%)
    Language                                 : French
    Service kind                             : Complete Main
    Default                                  : Yes
    Forced                                   : No

    Text #1
    ID                                       : 3
    Format                                   : UTF-8
    Codec ID                                 : S_TEXT/UTF8
    Codec ID/Info                            : UTF-8 Plain Text
    Duration                                 : 1 h 54 min
    Bit rate                                 : 37 b/s
    Count of elements                        : 1167
    Stream size                              : 31.3 KiB (0%)
    Language                                 : English
    Default                                  : Yes
    Forced                                   : Yes

    Text #2
    ID                                       : 4
    Format                                   : UTF-8
    Codec ID                                 : S_TEXT/UTF8
    Codec ID/Info                            : UTF-8 Plain Text
    Duration                                 : 1 h 54 min
    Bit rate                                 : 54 b/s
    Count of elements                        : 1627
    Stream size                              : 45.6 KiB (0%)
    Title                                    : SDH SRT (NF)
    Language                                 : French
    Default                                  : No
    Forced                                   : No

    Text #3
    ID                                       : 5
    Format                                   : UTF-8
    Codec ID                                 : S_TEXT/UTF8
    Codec ID/Info                            : UTF-8 Plain Text
    Duration                                 : 1 h 54 min
    Bit rate                                 : 39 b/s
    Count of elements                        : 1208
    Stream size                              : 33.4 KiB (0%)
    Language                                 : Spanish
    Default                                  : No
    Forced                                   : No

    Text #4
    ID                                       : 6
    Format                                   : UTF-8
    Codec ID                                 : S_TEXT/UTF8
    Codec ID/Info                            : UTF-8 Plain Text
    Duration                                 : 1 h 54 min
    Bit rate                                 : 42 b/s
    Count of elements                        : 1204
    Stream size                              : 35.3 KiB (0%)
    Language                                 : Spanish
    Default                                  : No
    Forced                                   : No

    Text #5
    ID                                       : 7
    Format                                   : UTF-8
    Codec ID                                 : S_TEXT/UTF8
    Codec ID/Info                            : UTF-8 Plain Text
    Duration                                 : 1 h 54 min
    Bit rate                                 : 41 b/s
    Count of elements                        : 1188
    Stream size                              : 34.7 KiB (0%)
    Language                                 : Portuguese
    Default                                  : No
    Forced                                   : No

    Text #6
    ID                                       : 8
    Format                                   : UTF-8
    Codec ID                                 : S_TEXT/UTF8
    Codec ID/Info                            : UTF-8 Plain Text
    Duration                                 : 1 h 54 min
    Bit rate                                 : 38 b/s
    Count of elements                        : 1161
    Stream size                              : 32.1 KiB (0%)
    Language                                 : Swedish
    Default                                  : No
    Forced                                   : No

    Text #7
    ID                                       : 9
    Format                                   : UTF-8
    Codec ID                                 : S_TEXT/UTF8
    Codec ID/Info                            : UTF-8 Plain Text
    Duration                                 : 1 h 54 min
    Bit rate                                 : 36 b/s
    Count of elements                        : 907
    Stream size                              : 30.8 KiB (0%)
    Language                                 : Norwegian
    Default                                  : No
    Forced                                   : No

    Text #8
    ID                                       : 10
    Format                                   : UTF-8
    Codec ID                                 : S_TEXT/UTF8
    Codec ID/Info                            : UTF-8 Plain Text
    Duration                                 : 1 h 54 min
    Bit rate                                 : 36 b/s
    Count of elements                        : 1129
    Stream size                              : 30.6 KiB (0%)
    Language                                 : Danish
    Default                                  : No
    Forced                                   : No

    Text #9
    ID                                       : 11
    Format                                   : UTF-8
    Codec ID                                 : S_TEXT/UTF8
    Codec ID/Info                            : UTF-8 Plain Text
    Duration                                 : 1 h 54 min
    Bit rate                                 : 37 b/s
    Count of elements                        : 1101
    Stream size                              : 31.9 KiB (0%)
    Language                                 : Finnish
    Default                                  : No
    Forced                                   : No

    Menu
    00:00:00.000                             : :Chapter 01
    00:12:02.138                             : :Chapter 02
    00:22:56.792                             : :Chapter 03
    00:32:05.298                             : :Chapter 04
    00:40:23.880                             : :Chapter 05
    00:51:37.594                             : :Chapter 06
    01:01:49.289                             : :Chapter 07
    01:12:54.662                             : :Chapter 08
    01:19:21.131                             : :Chapter 09
    01:28:48.949                             : :Chapter 10
    01:39:49.567                             : :Chapter 11
    01:49:54.421                             : :Chapter 12



                                                                                                                                                                                                            
                                                                                                                                                                                                                                                                                                                                                                                                                                                                                                                                                                                                                                                                                                                                                                                                                                                            
    38e47781885f61f9e756dbbac2a105ba.torrent (44.35 KB)

    小黑屋|新疆25选7 ( 闽ICP备160050789号-1 )

    所有资源来自网络采集,如果侵犯了您的权益,请发邮件至 [email protected],立即清除相关链接

    GMT+8, 2019-8-25 02:45 , Processed in 0.087371 second(s), 23 queries .

    Powered by Discuz! X3.2

    © 2001-2013 Comsenz Inc.

    快速回复 新疆25选7 返回列表
  • 多国开发“冰上丝路”,北极将成黄金水道? 2019-08-23
  • 更别忘了马克思对共产主义设定的另一个条件:劳动不再是谋生的手段。这一点哈儿是怎么也不能理解的,哈儿嘛,夏虫不可语冰嘛。 2019-08-22
  • 西部消化疾病内镜诊疗新力量杨琦 2019-08-22
  • 《中原经济区包容性增长研究》简介 2019-08-18
  • 外国专家:中国经济很快将超美国 2050年经济中心将移至亚洲 2019-08-18
  • 2018全国高考结束,多省份公布放榜时间 2019-08-12
  • 湖北123家企业携荆楚精品粮油亮相福州 2019-08-12
  • 习近平时间用屈原精神“塑心”“立行” 2019-08-12
  • 广西河池消防支队召开新兵第二阶段集训工作部署会 2019-08-10
  • 40余名孩子上学无法登记 经开未央推诿扯皮!!!市教育局不管不顾!!! 2019-08-10
  • 英国球迷要在世界杯上搞事情?俄罗斯笑脸相迎:你来啊 2019-08-07
  • 微电子与软件工程研究院挂牌成立 2019-08-07
  • 人大代表网络平台-天山网 2019-08-07
  • 张鸿星调研中央环保督察反馈问题整改工作 2019-08-02
  • 红十字日:江西发布红十字会会歌《阳光·天使》 2019-08-01
  • 新天地平台彩票 qq竞彩足球比分直播 太阳红心水论坛 重庆快乐10分钟幸运5遗漏号码 快乐10分开奖结果 河北11选五走势图 赌场的英文 博彩税修订条例 北京时时彩kp10现场赛 彩票湖南快乐十分logo 彩票网站送58元彩金的 快乐扑克3走势图 广西快乐十分彩控网 宁夏11选5开奖走势 浙江11选5中奖查询