• 多国开发“冰上丝路”,北极将成黄金水道? 2019-08-23
  • 更别忘了马克思对共产主义设定的另一个条件:劳动不再是谋生的手段。这一点哈儿是怎么也不能理解的,哈儿嘛,夏虫不可语冰嘛。 2019-08-22
  • 西部消化疾病内镜诊疗新力量杨琦 2019-08-22
  • 《中原经济区包容性增长研究》简介 2019-08-18
  • 外国专家:中国经济很快将超美国 2050年经济中心将移至亚洲 2019-08-18
  • 2018全国高考结束,多省份公布放榜时间 2019-08-12
  • 湖北123家企业携荆楚精品粮油亮相福州 2019-08-12
  • 习近平时间用屈原精神“塑心”“立行” 2019-08-12
  • 广西河池消防支队召开新兵第二阶段集训工作部署会 2019-08-10
  • 40余名孩子上学无法登记 经开未央推诿扯皮!!!市教育局不管不顾!!! 2019-08-10
  • 英国球迷要在世界杯上搞事情?俄罗斯笑脸相迎:你来啊 2019-08-07
  • 微电子与软件工程研究院挂牌成立 2019-08-07
  • 人大代表网络平台-天山网 2019-08-07
  • 张鸿星调研中央环保督察反馈问题整改工作 2019-08-02
  • 红十字日:江西发布红十字会会歌《阳光·天使》 2019-08-01
  • 新疆25选7

     找回密码
     立即注册
    打印 上一主题 下一主题

    福彩2o17年3d走势图: 他们(国际版) Loro.2018.LiMiTED.720p.BluRay.x264-CADAVER 6.56GB

    [复制链接]
    ?
    跳转到指定楼层
    楼主


    帖子完整标题:他们(国际版) Loro.2018.LiMiTED.720p.BluRay.x264-CADAVER 6.56GB




    ◎译  名 他们(国际版)
    ◎片  名 Loro
    ◎年  代 2018
    ◎产  地 意大利
    ◎类  别 剧情
    ◎语  言 意大利语
    ◎上映日期 2018-09-13(意大利)
    ◎IMDb评分  6.7/10 from 501 users
    ◎导  演 保罗·索伦蒂诺 Paolo Sorrentino
    ◎编  剧 保罗·索伦蒂诺 Paolo Sorrentino / 翁贝托·康塔罗 Umberto Contarello
    ◎主  演 托尼·塞尔维洛 Toni Servillo
          艾莱娜·索菲亚·里奇 Elena Sofia Ricci
          里卡多·斯卡马乔 Riccardo Scamarcio
          卡夏·斯穆特尼亚克 Kasia Smutniak


    ◎标  签 索伦蒂诺 | 意大利 | PaoloSorrentino | 政治 | 人性 | 義大利 | 电影院 | 法國

    ◎简  介  

      暂无相关剧情介绍
    Video
    ID                                       : 1
    Format                                   : AVC
    Format/Info                              : Advanced Video Codec
    Format settings                          : CABAC / 12 Ref Frames
    Format settings, CABAC                   : Yes
    Format settings, ReFrames                : 12 frames
    Codec ID                                 : V_MPEG4/ISO/AVC
    Duration                                 : 2 h 31 min
    Bit rate                                 : 4 705 kb/s
    Width                                    : 1 280 pixels
    Height                                   : 536 pixels
    Display aspect ratio                     : 2.40:1
    Frame rate mode                          : Constant
    Frame rate                               : 25.000 FPS
    Color space                              : YUV
    Chroma subsampling                       : 4:2:0
    Bit depth                                : 8 bits
    Scan type                                : Progressive
    Bits/(Pixel*Frame)                       : 0.274
    Stream size                              : 4.96 GiB (76%)
    Writing library                          : x264 core 157 r2969 d4099dd
    Encoding settings                        : cabac=1 / ref=12 / deblock=1:-3:-3 / analyse=0x3:0x133 / me=umh / subme=9 / psy=1 / psy_rd=1.00:0.00 / mixed_ref=1 / me_range=24 / chroma_me=1 / trellis=1 / 8x8dct=1 / cqm=0 / deadzone=21,11 / fast_pskip=0 / chroma_qp_offset=-2 / threads=17 / lookahead_threads=2 / sliced_threads=0 / nr=0 / decimate=1 / interlaced=0 / bluray_compat=0 / constrained_intra=0 / bframes=8 / b_pyramid=2 / b_adapt=2 / b_bias=0 / direct=3 / weightb=1 / open_gop=0 / weightp=2 / keyint=250 / keyint_min=25 / scenecut=40 / intra_refresh=0 / rc_lookahead=60 / rc=2pass / mbtree=1 / bitrate=4705 / ratetol=1.0 / qcomp=0.60 / qpmin=0 / qpmax=69 / qpstep=4 / cplxblur=20.0 / qblur=0.5 / vbv_maxrate=62500 / vbv_bufsize=78125 / nal_hrd=none / filler=0 / ip_ratio=1.40 / aq=1:1.00
    Default                                  : Yes
    Forced                                   : No

    Audio
    ID                                       : 2
    Format                                   : DTS
    Format/Info                              : Digital Theater Systems
    Codec ID                                 : A_DTS
    Duration                                 : 2 h 31 min
    Bit rate mode                            : Constant
    Bit rate                                 : 1 509 kb/s
    Channel(s)                               : 6 channels
    Channel layout                           : C L R Ls Rs LFE
    Sampling rate                            : 48.0 kHz
    Frame rate                               : 93.750 FPS (512 SPF)
    Bit depth                                : 24 bits
    Compression mode                         : Lossy
    Stream size                              : 1.59 GiB (24%)
    Language                                 : Italian
    Default                                  : Yes
    Forced                                   : No

    Text
    ID                                       : 3
    Format                                   : UTF-8
    Codec ID                                 : S_TEXT/UTF8
    Codec ID/Info                            : UTF-8 Plain Text
    Duration                                 : 2 h 21 min
    Bit rate                                 : 60 b/s
    Count of elements                        : 1676
    Stream size                              : 62.6 KiB (0%)
    Language                                 : English
    Default                                  : Yes
    Forced                                   : No

    Menu
    00:00:00.000                             : en:Chapter 01
    00:12:11.520                             : en:Chapter 02
    00:26:09.920                             : en:Chapter 03
    00:37:42.960                             : en:Chapter 04
    00:51:13.160                             : en:Chapter 05
    01:03:55.280                             : en:Chapter 06
    01:11:24.880                             : en:Chapter 07
    01:28:30.040                             : en:Chapter 08
    01:38:58.120                             : en:Chapter 09
    01:51:50.240                             : en:Chapter 10
    02:01:46.920                             : en:Chapter 11
    02:18:15.760                             : en:Chapter 12



                                                                                                                                                                                                            
                                                                                                                                                                                                                                                                                                                                                                                                                                                                                                                                                                                                                                                                                                                                                                                                                                                            
    70011d855b50f96575f5667d378b888b.torrent (33.49 KB)

    小黑屋|新疆25选7 ( 闽ICP备160050789号-1 )

    所有资源来自网络采集,如果侵犯了您的权益,请发邮件至 [email protected],立即清除相关链接

    GMT+8, 2019-8-25 01:41 , Processed in 0.070846 second(s), 23 queries .

    Powered by Discuz! X3.2

    © 2001-2013 Comsenz Inc.

    快速回复 新疆25选7 返回列表
  • 多国开发“冰上丝路”,北极将成黄金水道? 2019-08-23
  • 更别忘了马克思对共产主义设定的另一个条件:劳动不再是谋生的手段。这一点哈儿是怎么也不能理解的,哈儿嘛,夏虫不可语冰嘛。 2019-08-22
  • 西部消化疾病内镜诊疗新力量杨琦 2019-08-22
  • 《中原经济区包容性增长研究》简介 2019-08-18
  • 外国专家:中国经济很快将超美国 2050年经济中心将移至亚洲 2019-08-18
  • 2018全国高考结束,多省份公布放榜时间 2019-08-12
  • 湖北123家企业携荆楚精品粮油亮相福州 2019-08-12
  • 习近平时间用屈原精神“塑心”“立行” 2019-08-12
  • 广西河池消防支队召开新兵第二阶段集训工作部署会 2019-08-10
  • 40余名孩子上学无法登记 经开未央推诿扯皮!!!市教育局不管不顾!!! 2019-08-10
  • 英国球迷要在世界杯上搞事情?俄罗斯笑脸相迎:你来啊 2019-08-07
  • 微电子与软件工程研究院挂牌成立 2019-08-07
  • 人大代表网络平台-天山网 2019-08-07
  • 张鸿星调研中央环保督察反馈问题整改工作 2019-08-02
  • 红十字日:江西发布红十字会会歌《阳光·天使》 2019-08-01
  • 初级象棋谱 2019排列五规律图 下载上海时时乐走势图 11先5走势图 河内5分彩开奖结果 四川金7乐534期开奖 青海11选5开奖结果今天 香港最准平码网址 二分彩计划软件 江苏十一选五任八 群英会开奖直播 彩票销售管理办法 广西彩票官网 北京快三官网投注 复古两码中特