• 多国开发“冰上丝路”,北极将成黄金水道? 2019-08-23
  • 更别忘了马克思对共产主义设定的另一个条件:劳动不再是谋生的手段。这一点哈儿是怎么也不能理解的,哈儿嘛,夏虫不可语冰嘛。 2019-08-22
  • 西部消化疾病内镜诊疗新力量杨琦 2019-08-22
  • 《中原经济区包容性增长研究》简介 2019-08-18
  • 外国专家:中国经济很快将超美国 2050年经济中心将移至亚洲 2019-08-18
  • 2018全国高考结束,多省份公布放榜时间 2019-08-12
  • 湖北123家企业携荆楚精品粮油亮相福州 2019-08-12
  • 习近平时间用屈原精神“塑心”“立行” 2019-08-12
  • 广西河池消防支队召开新兵第二阶段集训工作部署会 2019-08-10
  • 40余名孩子上学无法登记 经开未央推诿扯皮!!!市教育局不管不顾!!! 2019-08-10
  • 英国球迷要在世界杯上搞事情?俄罗斯笑脸相迎:你来啊 2019-08-07
  • 微电子与软件工程研究院挂牌成立 2019-08-07
  • 人大代表网络平台-天山网 2019-08-07
  • 张鸿星调研中央环保督察反馈问题整改工作 2019-08-02
  • 红十字日:江西发布红十字会会歌《阳光·天使》 2019-08-01
  • 新疆25选7

     找回密码
     立即注册
    打印 上一主题 下一主题

    3d彩宝网: 愤怒乒乓球/乒乓特派员 Balls.of.Fury.2007.720p.BluRay.x264.iNTERNAL-...

    [复制链接]
    ?
    跳转到指定楼层
    楼主


    帖子完整标题:愤怒乒乓球/乒乓特派员 Balls.of.Fury.2007.720p.BluRay.x264.iNTERNAL-GUACAMOLE 3.27GB




    ◎译  名 愤怒乒乓球 / 乒乓特派员 / 咆哮乒乓
    ◎片  名 Balls of Fury
    ◎年  代 2007
    ◎产  地 美国
    ◎类  别 喜剧 / 动作 / 爱情 / 犯罪 / 运动
    ◎语  言 英语 / 汉语普通话
    ◎上映日期 2007-08-29
    ◎IMDb评分  5.3/10 from 38900 users
    ◎片  长 90 分钟
    ◎导  演 Robert Ben Garant
    ◎编  剧 Thomas Lennon / Robert Ben Garant
    ◎主  演 Darryl Chan
          Brett DelBuono
          Maggie Q
          Christopher Walken


    ◎标  签 喜剧 | 美国 | 搞笑 | 美国电影 | 乒乓 | 2007 | 烂片 | 电影

    ◎简  介  

      FBI的头号通缉犯封残(克里斯托弗·沃肯 Christopher Walken 饰)忍狡猾,FBI想尽办法都无法将其缉拿归案。封有一个特殊的爱好,那就是他举办的地下乒乓球赛,这种比赛的特殊之处就在于参赛双方赛前要签订“生死状”。为了早日捉拿峰归案,FBI找到了前职业乒乓球手兰迪(丹·福勒 Dan Fogler 饰),希望他能作为卧底参赛。兰迪已经有20年没有打球了,他觉得这次任务不但可以使自己重拾往日的辉煌,还能替被封害死的父亲报仇,于是他欣然接受了任务。地下乒乓球赛不是你死就是我亡,这里不乏凶狠厉害的乒乓球高手,兰迪真的能顺利完成任务吗?
    Video
    ID                                       : 1
    Format                                   : AVC
    Format/Info                              : Advanced Video Codec
    Format settings                          : CABAC / 5 Ref Frames
    Format settings, CABAC                   : Yes
    Format settings, ReFrames                : 5 frames
    Codec ID                                 : V_MPEG4/ISO/AVC
    Duration                                 : 1 h 30 min
    Bit rate                                 : 4 419 kb/s
    Width                                    : 1 280 pixels
    Height                                   : 696 pixels
    Display aspect ratio                     : 1.85:1
    Frame rate mode                          : Constant
    Frame rate                               : 23.976 (24000/1001) FPS
    Color space                              : YUV
    Chroma subsampling                       : 4:2:0
    Bit depth                                : 8 bits
    Scan type                                : Progressive
    Bits/(Pixel*Frame)                       : 0.207
    Stream size                              : 2.79 GiB (85%)
    Writing library                          : x264 core 157 r2969 d4099dd
    Encoding settings                        : cabac=1 / ref=5 / deblock=1:0:0 / analyse=0x3:0x113 / me=umh / subme=8 / psy=1 / psy_rd=1.00:0.00 / mixed_ref=1 / me_range=16 / chroma_me=1 / trellis=2 / 8x8dct=1 / cqm=0 / deadzone=21,11 / fast_pskip=0 / chroma_qp_offset=-2 / threads=22 / lookahead_threads=3 / sliced_threads=0 / nr=0 / decimate=1 / interlaced=0 / bluray_compat=0 / constrained_intra=0 / bframes=3 / b_pyramid=2 / b_adapt=1 / b_bias=0 / direct=1 / weightb=1 / open_gop=0 / weightp=2 / keyint=250 / keyint_min=23 / scenecut=40 / intra_refresh=0 / rc_lookahead=50 / rc=2pass / mbtree=1 / bitrate=4419 / ratetol=1.0 / qcomp=0.60 / qpmin=0 / qpmax=69 / qpstep=4 / cplxblur=20.0 / qblur=0.5 / ip_ratio=1.40 / aq=1:1.00
    Default                                  : Yes
    Forced                                   : No

    Audio
    ID                                       : 2
    Format                                   : DTS
    Format/Info                              : Digital Theater Systems
    Codec ID                                 : A_DTS
    Duration                                 : 1 h 30 min
    Bit rate mode                            : Constant
    Bit rate                                 : 768 kb/s
    Channel(s)                               : 6 channels
    Channel layout                           : C L R Ls Rs LFE
    Sampling rate                            : 48.0 kHz
    Frame rate                               : 93.750 FPS (512 SPF)
    Bit depth                                : 24 bits
    Compression mode                         : Lossy
    Stream size                              : 496 MiB (15%)
    Language                                 : English
    Default                                  : Yes
    Forced                                   : No

    Menu
    00:00:00.000                             : en:00:00:00.000
    00:05:41.424                             : en:00:05:41.424
    00:11:17.260                             : en:00:11:17.260
    00:17:55.157                             : en:00:17:55.157
    00:24:50.364                             : en:00:24:50.364
    00:36:14.881                             : en:00:36:14.881
    00:40:14.912                             : en:00:40:14.912
    00:49:01.147                             : en:00:49:01.147
    00:55:15.979                             : en:00:55:15.979
    01:01:03.076                             : en:01:01:03.076
    01:05:19.541                             : en:01:05:19.541
    01:08:39.949                             : en:01:08:39.949
    01:14:19.288                             : en:01:14:19.288
    01:20:21.275                             : en:01:20:21.275



                                                                                                                                                                                                            
                                                                                                                                                                                                                                                                                                                                                                                                                                                                                                                                                                                                                                                                                                                                                                                                                                                            
    438d6d78a911cb603ec06254be5e0d96.torrent (33.3 KB)

    小黑屋|新疆25选7 ( 闽ICP备160050789号-1 )

    所有资源来自网络采集,如果侵犯了您的权益,请发邮件至 [email protected],立即清除相关链接

    GMT+8, 2019-8-25 01:41 , Processed in 0.069839 second(s), 23 queries .

    Powered by Discuz! X3.2

    © 2001-2013 Comsenz Inc.

    快速回复 新疆25选7 返回列表
  • 多国开发“冰上丝路”,北极将成黄金水道? 2019-08-23
  • 更别忘了马克思对共产主义设定的另一个条件:劳动不再是谋生的手段。这一点哈儿是怎么也不能理解的,哈儿嘛,夏虫不可语冰嘛。 2019-08-22
  • 西部消化疾病内镜诊疗新力量杨琦 2019-08-22
  • 《中原经济区包容性增长研究》简介 2019-08-18
  • 外国专家:中国经济很快将超美国 2050年经济中心将移至亚洲 2019-08-18
  • 2018全国高考结束,多省份公布放榜时间 2019-08-12
  • 湖北123家企业携荆楚精品粮油亮相福州 2019-08-12
  • 习近平时间用屈原精神“塑心”“立行” 2019-08-12
  • 广西河池消防支队召开新兵第二阶段集训工作部署会 2019-08-10
  • 40余名孩子上学无法登记 经开未央推诿扯皮!!!市教育局不管不顾!!! 2019-08-10
  • 英国球迷要在世界杯上搞事情?俄罗斯笑脸相迎:你来啊 2019-08-07
  • 微电子与软件工程研究院挂牌成立 2019-08-07
  • 人大代表网络平台-天山网 2019-08-07
  • 张鸿星调研中央环保督察反馈问题整改工作 2019-08-02
  • 红十字日:江西发布红十字会会歌《阳光·天使》 2019-08-01
  • 极速时时彩计划永诚揭秘是什么贴吧 极速时时彩5个号公式 时时彩九码稳赚 福建快三计划软件手机版式 极速时时彩基本走势 大赢家极速飞艇规律 澳洲幸运8开奖查询 宁夏十一选走势图 法甲联赛赛果 北京时时彩5分钟开奖号 福彩3d字谜 新疆风采18选7开奖近期 快乐时时彩开奖记录查询结果 排球少年第二季网盘 3d087开组三还是组六