• 多国开发“冰上丝路”,北极将成黄金水道? 2019-08-23
  • 更别忘了马克思对共产主义设定的另一个条件:劳动不再是谋生的手段。这一点哈儿是怎么也不能理解的,哈儿嘛,夏虫不可语冰嘛。 2019-08-22
  • 西部消化疾病内镜诊疗新力量杨琦 2019-08-22
  • 《中原经济区包容性增长研究》简介 2019-08-18
  • 外国专家:中国经济很快将超美国 2050年经济中心将移至亚洲 2019-08-18
  • 2018全国高考结束,多省份公布放榜时间 2019-08-12
  • 湖北123家企业携荆楚精品粮油亮相福州 2019-08-12
  • 习近平时间用屈原精神“塑心”“立行” 2019-08-12
  • 广西河池消防支队召开新兵第二阶段集训工作部署会 2019-08-10
  • 40余名孩子上学无法登记 经开未央推诿扯皮!!!市教育局不管不顾!!! 2019-08-10
  • 英国球迷要在世界杯上搞事情?俄罗斯笑脸相迎:你来啊 2019-08-07
  • 微电子与软件工程研究院挂牌成立 2019-08-07
  • 人大代表网络平台-天山网 2019-08-07
  • 张鸿星调研中央环保督察反馈问题整改工作 2019-08-02
  • 红十字日:江西发布红十字会会歌《阳光·天使》 2019-08-01
  • 新疆25选7

     找回密码
     立即注册
    打印 上一主题 下一主题

    新疆25选7走势图: 11号战壕 Trench.11.2017.720p.BluRay.x264-GETiT 3.28GB

    [复制链接]
    ?
    跳转到指定楼层
    楼主


    帖子完整标题:11号战壕 Trench.11.2017.720p.BluRay.x264-GETiT 3.28GB




    ◎译  名 11号战壕
    ◎片  名 Trench 11
    ◎年  代 2017
    ◎产  地 加拿大 Canada
    ◎类  别 惊悚 / 恐怖 / 战争
    ◎语  言 英语
    ◎上映日期 2017-10-15(加拿大)
    ◎IMDb评分  5.4/10 from 1256 users
    ◎导  演 Leo Scherman
    ◎编  剧 Matt Booi / Leo Scherman
    ◎主  演 卡琳·瓦纳斯 Karine Vanasse
          罗西弗·萨瑟兰 Rossif Sutherland
          查理·卡里克 Charlie Carrick


    ◎标  签 惊悚 | 恐怖 | 加拿大 | 加拿大电影 | 2017 | 加拿大寄生 | 烂片 | 战争

    ◎简  介  

      In the final days of WWI a shell-shocked soldier must lead a mission deep beneath the trenches to stop a German plot that could turn the tide of the war.
    Video
    ID                                       : 1
    Format                                   : AVC
    Format/Info                              : Advanced Video Codec
    Format settings                          : CABAC / 5 Ref Frames
    Format settings, CABAC                   : Yes
    Format settings, ReFrames                : 5 frames
    Codec ID                                 : V_MPEG4/ISO/AVC
    Duration                                 : 1 h 31 min
    Bit rate                                 : 4 365 kb/s
    Width                                    : 1 280 pixels
    Height                                   : 568 pixels
    Display aspect ratio                     : 2.25:1
    Frame rate mode                          : Constant
    Frame rate                               : 23.976 (24000/1001) FPS
    Color space                              : YUV
    Chroma subsampling                       : 4:2:0
    Bit depth                                : 8 bits
    Scan type                                : Progressive
    Bits/(Pixel*Frame)                       : 0.250
    Stream size                              : 2.79 GiB (85%)
    Writing library                          : x264 core 157 r2969 d4099dd
    Encoding settings                        : cabac=1 / ref=5 / deblock=1:0:0 / analyse=0x3:0x133 / me=umh / subme=7 / psy=1 / psy_rd=1.00:0.00 / mixed_ref=1 / me_range=16 / chroma_me=1 / trellis=2 / 8x8dct=1 / cqm=0 / deadzone=21,11 / fast_pskip=0 / chroma_qp_offset=-2 / threads=18 / lookahead_threads=3 / sliced_threads=0 / nr=0 / decimate=1 / interlaced=0 / bluray_compat=0 / constrained_intra=0 / bframes=3 / b_pyramid=2 / b_adapt=1 / b_bias=0 / direct=3 / weightb=1 / open_gop=0 / weightp=2 / keyint=250 / keyint_min=23 / scenecut=40 / intra_refresh=0 / rc_lookahead=50 / rc=2pass / mbtree=1 / bitrate=4365 / ratetol=1.0 / qcomp=0.60 / qpmin=0 / qpmax=69 / qpstep=4 / cplxblur=20.0 / qblur=0.5 / ip_ratio=1.40 / aq=1:1.00
    Language                                 : English
    Default                                  : Yes
    Forced                                   : No

    Audio
    ID                                       : 2
    Format                                   : DTS
    Format/Info                              : Digital Theater Systems
    Codec ID                                 : A_DTS
    Duration                                 : 1 h 31 min
    Bit rate mode                            : Constant
    Bit rate                                 : 768 kb/s
    Channel(s)                               : 6 channels
    Channel layout                           : C L R Ls Rs LFE
    Sampling rate                            : 48.0 kHz
    Frame rate                               : 93.750 FPS (512 SPF)
    Bit depth                                : 24 bits
    Compression mode                         : Lossy
    Stream size                              : 502 MiB (15%)
    Title                                    : dts
    Language                                 : English
    Default                                  : Yes
    Forced                                   : No

    Menu
    00:00:00.000                             : en:00:00:00.000
    00:08:01.667                             : en:00:08:01.667
    00:14:33.542                             : en:00:14:33.542
    00:21:55.458                             : en:00:21:55.458
    00:27:42.875                             : en:00:27:42.875
    00:34:35.208                             : en:00:34:35.208
    00:40:47.417                             : en:00:40:47.417
    00:48:25.625                             : en:00:48:25.625
    00:55:29.000                             : en:00:55:29.000
    01:04:04.750                             : en:01:04:04.750
    01:14:31.917                             : en:01:14:31.917
    01:19:52.750                             : en:01:19:52.750



                                                                                                                                                                                                            
                                                                                                                                                                                                                                                                                                                                                                                                                                                                                                                                                                                                                                                                                                                                                                                                                                                            
    9a139bef97e1feb21c33999acf245e4e.torrent (33.49 KB)

    小黑屋|新疆25选7 ( 闽ICP备160050789号-1 )

    所有资源来自网络采集,如果侵犯了您的权益,请发邮件至 [email protected],立即清除相关链接

    GMT+8, 2019-8-25 01:43 , Processed in 0.137707 second(s), 23 queries .

    Powered by Discuz! X3.2

    © 2001-2013 Comsenz Inc.

    快速回复 新疆25选7 返回列表
  • 多国开发“冰上丝路”,北极将成黄金水道? 2019-08-23
  • 更别忘了马克思对共产主义设定的另一个条件:劳动不再是谋生的手段。这一点哈儿是怎么也不能理解的,哈儿嘛,夏虫不可语冰嘛。 2019-08-22
  • 西部消化疾病内镜诊疗新力量杨琦 2019-08-22
  • 《中原经济区包容性增长研究》简介 2019-08-18
  • 外国专家:中国经济很快将超美国 2050年经济中心将移至亚洲 2019-08-18
  • 2018全国高考结束,多省份公布放榜时间 2019-08-12
  • 湖北123家企业携荆楚精品粮油亮相福州 2019-08-12
  • 习近平时间用屈原精神“塑心”“立行” 2019-08-12
  • 广西河池消防支队召开新兵第二阶段集训工作部署会 2019-08-10
  • 40余名孩子上学无法登记 经开未央推诿扯皮!!!市教育局不管不顾!!! 2019-08-10
  • 英国球迷要在世界杯上搞事情?俄罗斯笑脸相迎:你来啊 2019-08-07
  • 微电子与软件工程研究院挂牌成立 2019-08-07
  • 人大代表网络平台-天山网 2019-08-07
  • 张鸿星调研中央环保督察反馈问题整改工作 2019-08-02
  • 红十字日:江西发布红十字会会歌《阳光·天使》 2019-08-01
  • 三门生肖是哪几个 期特码东方心经 黑龙江22选5开奖走势图百度 安徽快三走势分布图 体彩山西十一选五走势图贴吧 华尔街娱乐平台打不开 极速飞艇大小玩法技巧 河北十一选五今天开奖号码 彩票源码免费 云南11选5开奖结果今天 湖北快三新规则 云南时时彩走势 江苏快3今天走势图3 上海快三近50期分布图 湖北快三走势图带连线